古哥論壇

 找回密碼
 注冊(分享大片)
查看: 1181|回復: 18
打印 上一主題 下一主題

[守望者/保衛奇俠]2009.The.Ultimate.Cut.1080p.BluRay.REMUX.AVC.TrueHD.5.1-FGT ...

[復制鏈接]
跳轉到指定樓層
1#
發表于 2019-12-12 21:33:47 | 只看該作者 回帖獎勵 |倒序瀏覽 |閱讀模式
4K天堂

◎譯  名 守望者 / 保衛奇俠(港) / 守護者(臺)
◎片  名 Watchmen
◎年  代 2009
◎產  地 美國
◎類  別 動作 / 科幻 / 懸疑
◎語  言 英語
◎上映日期 2009-03-06(美國)
◎IMDb評分 7.6/10 from 473355 users
◎IMDb鏈接 https://www.imdb.com/title/tt0409459
◎豆瓣評分 8.4/10 from 118651 users
◎藍光高清   http://www.4ktt.com
◎片  長 162分鐘
◎導  演 扎克·施奈德 Zack Snyder
◎編  劇 大衛·海特 David Hayter / Alex Tse / 戴夫·吉布森 Dave Gibbons / 艾倫·摩爾 Alan Moore
◎主  演 帕特里克·威爾森 Patrick Wilson
      卡拉·古奇諾 Carla Gugino
      比利·克魯德普 Billy Crudup
      瑪琳·阿克曼 Malin Akerman
      杰弗里·迪恩·摩根 Jeffrey Dean Morgan
      馬修·古迪 Matthew Goode
      杰基·厄爾·哈利 Jackie Earle Haley
      馬特·弗里沃 Matt Frewer
      史蒂芬·麥克哈蒂 Stephen McHattie
      勞拉·門內爾 Laura Mennell
      詹姆斯·M.康納 James M. Connor


◎簡  介
  由于邪惡勢力肆意蔓延,一群具有超群實力的正義之士挺身而出,他們戴著面具,身著奇裝異服,與各種壞蛋展開較量。不久,他們的英雄事跡通過媒體傳遍全國,美元鈔票、絲綢鬼魂、羅夏、城市隊長等超級英雄的名字廣為傳播,他們更參與到大大小小的重大事件之中,也因各自的性格遭受著不同的命運。但是在20世紀70年代,政府出臺的法令導致一部分不愿成為權貴爪牙的英雄退休,超級英雄集團由此分化。
  1985年的一天,效力政府的超級英雄“喜劇演員”愛德華·布萊克(杰弗里·迪恩·摩根 Jeffrey Dean Morgan 飾)被人殺害。四處逃亡的“羅夏”的沃爾特·科瓦奇(杰基·厄爾·哈利 Jackie Earle Haley 飾)意識到有人正向曾經的超級英雄痛下殺手,而這背后隱藏著更大的陰謀……


◎獲獎情況
  第11屆美國青少年選擇獎(2009)
  最佳動作冒險電影女演員(提名) 瑪琳·阿克曼
Video
ID : 1
Format : AVC
Format/Info : Advanced Video Codec
Format profile : [email protected]
Format settings : CABAC / 4 Ref Frames
Format settings, CABAC : Yes
Format settings, Reference frames : 4 frames
Codec ID : V_MPEG4/ISO/AVC
Duration : 3 h 35 min
Bit rate mode : Variable
Bit rate : 20.5 Mb/s
Maximum bit rate : 36.0 Mb/s
Width : 1 920 pixels
Height : 1 080 pixels
Display aspect ratio : 16:9
Frame rate mode : Constant
Frame rate : 23.976 (24000/1001) FPS
Color space : YUV
Chroma subsampling : 4:2:0
Bit depth : 8 bits
Scan type : Progressive
Bits/(Pixel*Frame) : 0.413
Stream size : 30.9 GiB (75%)
Title : Watchmen.2009.The.Ultimate.Cut.1080p.BluRay.REMUX.AVC.TrueHD.5.1-FGT
Language : English
Default : No
Forced : No

Audio #1
ID : 2
Format : MLP FBA
Format/Info : Meridian Lossless Packing FBA
Commercial name : Dolby TrueHD
Codec ID : A_TRUEHD
Duration : 3 h 35 min
Bit rate mode : Variable
Bit rate : 3 502 kb/s
Maximum bit rate : 5 280 kb/s
Channel(s) : 6 channels
Channel layout : L R C LFE Ls Rs
Sampling rate : 48.0 kHz
Frame rate : 1 200.000 FPS (40 SPF)
Compression mode : Lossless
Stream size : 5.27 GiB (13%)
Title : Watchmen.2009.The.Ultimate.Cut.1080p.BluRay.REMUX.AVC.TrueHD.5.1-FGT
Language : English
Default : Yes
Forced : No

Audio #2
ID : 3
Format : AC-3
Format/Info : Audio Coding 3
Commercial name : Dolby Digital
Codec ID : A_AC3
Duration : 3 h 35 min
Bit rate mode : Constant
Bit rate : 640 kb/s
Channel(s) : 6 channels
Channel layout : L R C LFE Ls Rs
Sampling rate : 48.0 kHz
Frame rate : 31.250 FPS (1536 SPF)
Bit depth : 16 bits
Compression mode : Lossy
Stream size : 986 MiB (2%)
Title : Watchmen.2009.The.Ultimate.Cut.1080p.BluRay.REMUX.AVC.TrueHD.5.1-FGT
Language : English
Service kind : Complete Main
Default : No
Forced : No

Audio #3
ID : 4
Format : AC-3
Format/Info : Audio Coding 3
Commercial name : Dolby Digital
Codec ID : A_AC3
Duration : 3 h 35 min
Bit rate mode : Constant
Bit rate : 640 kb/s
Channel(s) : 6 channels
Channel layout : L R C LFE Ls Rs
Sampling rate : 48.0 kHz
Frame rate : 31.250 FPS (1536 SPF)
Bit depth : 16 bits
Compression mode : Lossy
Stream size : 986 MiB (2%)
Title : Watchmen.2009.The.Ultimate.Cut.1080p.BluRay.REMUX.AVC.TrueHD.5.1-FGT
Language : English
Service kind : Complete Main
Default : No
Forced : No

Audio #4
ID : 5
Format : AC-3
Format/Info : Audio Coding 3
Commercial name : Dolby Digital
Codec ID : A_AC3
Duration : 3 h 35 min
Bit rate mode : Constant
Bit rate : 640 kb/s
Channel(s) : 6 channels
Channel layout : L R C LFE Ls Rs
Sampling rate : 48.0 kHz
Frame rate : 31.250 FPS (1536 SPF)
Bit depth : 16 bits
Compression mode : Lossy
Stream size : 986 MiB (2%)
Title : Watchmen.2009.The.Ultimate.Cut.1080p.BluRay.REMUX.AVC.TrueHD.5.1-FGT
Language : German
Service kind : Complete Main
Default : No
Forced : No

Audio #5
ID : 6
Format : AC-3
Format/Info : Audio Coding 3
Commercial name : Dolby Digital
Codec ID : A_AC3
Duration : 3 h 35 min
Bit rate mode : Constant
Bit rate : 640 kb/s
Channel(s) : 6 channels
Channel layout : L R C LFE Ls Rs
Sampling rate : 48.0 kHz
Frame rate : 31.250 FPS (1536 SPF)
Bit depth : 16 bits
Compression mode : Lossy
Stream size : 986 MiB (2%)
Title : Watchmen.2009.The.Ultimate.Cut.1080p.BluRay.REMUX.AVC.TrueHD.5.1-FGT
Language : French
Service kind : Complete Main
Default : No
Forced : No

Audio #6
ID : 7
Format : AC-3
Format/Info : Audio Coding 3
Commercial name : Dolby Digital
Codec ID : A_AC3
Duration : 3 h 35 min
Bit rate mode : Constant
Bit rate : 640 kb/s
Channel(s) : 6 channels
Channel layout : L R C LFE Ls Rs
Sampling rate : 48.0 kHz
Frame rate : 31.250 FPS (1536 SPF)
Bit depth : 16 bits
Compression mode : Lossy
Stream size : 986 MiB (2%)
Title : Watchmen.2009.The.Ultimate.Cut.1080p.BluRay.REMUX.AVC.TrueHD.5.1-FGT
Language : Japanese
Service kind : Complete Main
Default : No
Forced : No

Text #1
ID : 8
Format : UTF-8
Codec ID : S_TEXT/UTF8
Codec ID/Info : UTF-8 Plain Text
Duration : 3 h 24 min
Bit rate : 54 b/s
Count of elements : 2370
Stream size : 81.0 KiB (0%)
Title : English-SRT
Language : English
Default : Yes
Forced : No

Text #2
ID : 9
Format : UTF-8
Codec ID : S_TEXT/UTF8
Codec ID/Info : UTF-8 Plain Text
Duration : 3 h 24 min
Bit rate : 58 b/s
Count of elements : 2592
Stream size : 87.2 KiB (0%)
Title : English-SDH-SRT
Language : English
Default : No
Forced : No

Text #3
ID : 10
Format : PGS
Muxing mode : zlib
Codec ID : S_HDMV/PGS
Codec ID/Info : Picture based subtitle format used on BDs/HD-DVDs
Duration : 3 h 24 min
Bit rate : 33.6 kb/s
Count of elements : 4704
Stream size : 49.0 MiB (0%)
Title : English-PGS
Language : English
Default : No
Forced : No

Text #4
ID : 11
Format : PGS
Muxing mode : zlib
Codec ID : S_HDMV/PGS
Codec ID/Info : Picture based subtitle format used on BDs/HD-DVDs
Duration : 3 h 24 min
Bit rate : 37.1 kb/s
Count of elements : 5184
Stream size : 54.3 MiB (0%)
Title : English-SDH-PGS
Language : English
Default : No
Forced : No

Text #5
ID : 12
Format : PGS
Muxing mode : zlib
Codec ID : S_HDMV/PGS
Codec ID/Info : Picture based subtitle format used on BDs/HD-DVDs
Duration : 3 h 34 min
Bit rate : 30.7 kb/s
Count of elements : 4800
Stream size : 47.2 MiB (0%)
Title : Danish-PGS
Language : Danish
Default : No
Forced : No

Text #6
ID : 13
Format : PGS
Muxing mode : zlib
Codec ID : S_HDMV/PGS
Codec ID/Info : Picture based subtitle format used on BDs/HD-DVDs
Duration : 3 h 34 min
Bit rate : 32.3 kb/s
Count of elements : 4830
Stream size : 49.7 MiB (0%)
Title : German-PGS
Language : German
Default : No
Forced : No

Text #7
ID : 14
Format : PGS
Muxing mode : zlib
Codec ID : S_HDMV/PGS
Codec ID/Info : Picture based subtitle format used on BDs/HD-DVDs
Duration : 3 h 18 min
Bit rate : 625 b/s
Count of elements : 80
Stream size : 908 KiB (0%)
Title : German-FORCED-PGS
Language : German
Default : No
Forced : No

Text #8
ID : 15
Format : PGS
Muxing mode : zlib
Codec ID : S_HDMV/PGS
Codec ID/Info : Picture based subtitle format used on BDs/HD-DVDs
Duration : 3 h 34 min
Bit rate : 30.0 kb/s
Count of elements : 4650
Stream size : 46.2 MiB (0%)
Title : French-PGS
Language : French
Default : No
Forced : No

Text #9
ID : 16
Format : PGS
Muxing mode : zlib
Codec ID : S_HDMV/PGS
Codec ID/Info : Picture based subtitle format used on BDs/HD-DVDs
Duration : 3 h 16 min
Bit rate : 633 b/s
Count of elements : 82
Stream size : 914 KiB (0%)
Title : French-FORCED-PGS
Language : French
Default : No
Forced : No

Text #10
ID : 17
Format : PGS
Muxing mode : zlib
Codec ID : S_HDMV/PGS
Codec ID/Info : Picture based subtitle format used on BDs/HD-DVDs
Duration : 3 h 24 min
Bit rate : 26.5 kb/s
Count of elements : 4498
Stream size : 38.7 MiB (0%)
Title : Japanese-PGS
Language : Japanese
Default : No
Forced : No

Text #11
ID : 18
Format : PGS
Muxing mode : zlib
Codec ID : S_HDMV/PGS
Codec ID/Info : Picture based subtitle format used on BDs/HD-DVDs
Duration : 3 h 34 min
Bit rate : 28.8 kb/s
Count of elements : 4094
Stream size : 44.2 MiB (0%)
Title : Dutch-PGS
Language : Dutch
Default : No
Forced : No

Text #12
ID : 19
Format : PGS
Muxing mode : zlib
Codec ID : S_HDMV/PGS
Codec ID/Info : Picture based subtitle format used on BDs/HD-DVDs
Duration : 3 h 34 min
Bit rate : 28.7 kb/s
Count of elements : 4818
Stream size : 44.1 MiB (0%)
Title : Norwegian-PGS
Language : Norwegian
Default : No
Forced : No

Text #13
ID : 20
Format : PGS
Muxing mode : zlib
Codec ID : S_HDMV/PGS
Codec ID/Info : Picture based subtitle format used on BDs/HD-DVDs
Duration : 3 h 34 min
Bit rate : 29.0 kb/s
Count of elements : 4822
Stream size : 44.6 MiB (0%)
Title : Finnish-PGS
Language : Finnish
Default : No
Forced : No

Text #14
ID : 21
Format : PGS
Muxing mode : zlib
Codec ID : S_HDMV/PGS
Codec ID/Info : Picture based subtitle format used on BDs/HD-DVDs
Duration : 3 h 34 min
Bit rate : 32.2 kb/s
Count of elements : 4822
Stream size : 49.5 MiB (0%)
Title : Swedish-PGS
Language : Swedish
Default : No
Forced : No

Text #15
ID : 22
Format : PGS
Muxing mode : zlib
Codec ID : S_HDMV/PGS
Codec ID/Info : Picture based subtitle format used on BDs/HD-DVDs
Duration : 3 h 16 min
Bit rate : 564 b/s
Count of elements : 94
Stream size : 813 KiB (0%)
Title : Japanese-FORCED-PGS
Language : Japanese
Default : No
Forced : No




游客,如果您要查看本帖隱藏內容請回復,如果您想無廣告、免回復、下載附件免影視幣請開通VIP:VIP傳送門



古哥影視論壇www.zqxbed.live 高清電影,藍光電影,最新電影,電影天堂,影視帝國,人人影視
2#
發表于 2019-12-12 21:40:12 | 只看該作者

我看不錯噢 謝謝樓主!古哥影視越來越好,高清電影還得上這來下載!
古哥影視論壇www.zqxbed.live 高清電影,藍光電影,最新電影,電影天堂,影視帝國,人人影視
回復 支持 反對

使用道具 舉報

3#
發表于 2019-12-12 21:41:43 | 只看該作者
謝謝分享全力支持
古哥影視論壇www.zqxbed.live 高清電影,藍光電影,最新電影,電影天堂,影視帝國,人人影視
回復 支持 反對

使用道具 舉報

4#
發表于 2019-12-12 21:57:02 | 只看該作者

感謝樓主的無私分享!要想古哥影視好,就靠你我他!
古哥影視論壇www.zqxbed.live 高清電影,藍光電影,最新電影,電影天堂,影視帝國,人人影視
回復 支持 反對

使用道具 舉報

5#
發表于 2019-12-12 22:09:34 | 只看該作者
我看不錯噢 謝謝樓主!古哥影視越來越好,高清電影還得上這來下載





......
古哥影視論壇www.zqxbed.live 高清電影,藍光電影,最新電影,電影天堂,影視帝國,人人影視
回復 支持 反對

使用道具 舉報

6#
發表于 2019-12-12 23:20:24 | 只看該作者
下下來看看
古哥影視論壇www.zqxbed.live 高清電影,藍光電影,最新電影,電影天堂,影視帝國,人人影視
回復 支持 反對

使用道具 舉報

7#
發表于 2019-12-13 13:34:46 | 只看該作者
又是部科幻大片,感謝分享,下載收藏
古哥影視論壇www.zqxbed.live 高清電影,藍光電影,最新電影,電影天堂,影視帝國,人人影視
回復 支持 反對

使用道具 舉報

8#
發表于 2019-12-15 21:25:08 | 只看該作者

我看不錯噢 謝謝樓主!古哥影視越來越好,高清電影還得上這來下載!
古哥影視論壇www.zqxbed.live 高清電影,藍光電影,最新電影,電影天堂,影視帝國,人人影視
回復 支持 反對

使用道具 舉報

10#
發表于 2019-12-18 12:36:35 | 只看該作者

好資源,謝謝樓主的分享
古哥影視論壇www.zqxbed.live 高清電影,藍光電影,最新電影,電影天堂,影視帝國,人人影視
回復 支持 反對

使用道具 舉報

11#
發表于 2019-12-18 12:42:51 | 只看該作者
感謝樓主分享資源
古哥影視論壇www.zqxbed.live 高清電影,藍光電影,最新電影,電影天堂,影視帝國,人人影視
回復 支持 反對

使用道具 舉報

12#
發表于 2019-12-26 21:30:44 | 只看該作者

我看不錯噢 謝謝樓主!古哥影視越來越好,高清電影還得上這來下載!
古哥影視論壇www.zqxbed.live 高清電影,藍光電影,最新電影,電影天堂,影視帝國,人人影視
回復 支持 反對

使用道具 舉報

13#
發表于 2019-12-26 22:03:53 | 只看該作者
我看不錯噢 謝謝樓主!古哥影視越來越好,高清電影還得上這來下載





......
古哥影視論壇www.zqxbed.live 高清電影,藍光電影,最新電影,電影天堂,影視帝國,人人影視
回復 支持 反對

使用道具 舉報

14#
發表于 2019-12-26 22:52:55 | 只看該作者
樓主發貼辛苦了,謝謝樓主分享!我覺得古哥影視的電影是最值得收藏的!
古哥影視論壇www.zqxbed.live 高清電影,藍光電影,最新電影,電影天堂,影視帝國,人人影視
回復 支持 反對

使用道具 舉報

15#
發表于 2020-1-6 17:12:10 | 只看該作者

我看不錯噢 謝謝樓主!古哥影視越來越好,高清電影還得上這來下載!
古哥影視論壇www.zqxbed.live 高清電影,藍光電影,最新電影,電影天堂,影視帝國,人人影視
回復 支持 反對

使用道具 舉報

16#
發表于 2020-1-7 14:38:33 | 只看該作者
謝謝分享全力支持
古哥影視論壇www.zqxbed.live 高清電影,藍光電影,最新電影,電影天堂,影視帝國,人人影視
回復 支持 反對

使用道具 舉報

17#
發表于 2020-1-7 22:37:28 | 只看該作者

謝謝分享全力支持
古哥影視論壇www.zqxbed.live 高清電影,藍光電影,最新電影,電影天堂,影視帝國,人人影視
回復 支持 反對

使用道具 舉報

18#
發表于 2020-1-8 00:19:48 | 只看該作者
樓主發貼辛苦了,謝謝樓主分享!我覺得古哥影視的電影是最值得收藏的!
古哥影視論壇www.zqxbed.live 高清電影,藍光電影,最新電影,電影天堂,影視帝國,人人影視
回復 支持 反對

使用道具 舉報

19#
發表于 前天 12:50 | 只看該作者
很大的名氣,來看看,謝謝發布。
古哥影視論壇www.zqxbed.live 高清電影,藍光電影,最新電影,電影天堂,影視帝國,人人影視
回復 支持 反對

使用道具 舉報

懶得打字嘛,點擊右側快捷回復->
您需要登錄后才可以回帖 登錄 | 注冊(分享大片)

本版積分規則

影視帝國免責聲明
本站提供網上學習交流和自由討論使用,所有資源均來自互聯網公開渠道,發布和個人言論并不代表本站立場,本站不負任何責任.
如發現有侵權行為,請與我們聯系.我們將立刻從網站上刪除,并向所有持版權者致最深歉意.
影視帝國論壇已經安全運行

QQ|小黑屋|手機版|Archiver|古哥論壇

GMT+8, 2020-1-18 04:59 , Processed in 0.214136 second(s), 19 queries , Gzip On.

Powered by Discuz! X3.4

© 2001-2017 Comsenz Inc.

快速回復 返回頂部 返回列表
pk10一分赛车技巧图片