古哥論壇

 找回密碼
 注冊(分享大片)
查看: 1813|回復: 94
打印 上一主題 下一主題

[第一滴血5:最后的血]2019.1080p.BluRay.REMUX.AVC.DTS-HD.MA.TrueHD.7.1.Atmos-FGT

[復制鏈接]
跳轉到指定樓層
1#
發表于 2019-12-12 22:20:27 | 只看該作者 回帖獎勵 |倒序瀏覽 |閱讀模式
4K天堂


◎譯  名 第一滴血5:最后的血 / Rambo 5 / Rambo 5: Last Blood / Rambo V / Rambo V: Last Blood / 蘭博5:最后一滴血 / 第一滴血5 / 第一滴血:最后一戰 / 第一滴血:終極血戰(港) / 藍波:最后一滴血(臺)
◎片  名 Rambo: Last Blood
◎年  代 2019
◎產  地 美國
◎類  別 動作 / 驚悚 / 冒險
◎語  言 英語
◎上映日期 2019-09-20(美國)
◎IMDb評分 6.7/10 from 23992 users
◎IMDb鏈接 https://www.imdb.com/title/tt1206885
◎豆瓣評分 7.6/10 from 1217 users
◎藍光高清   http://www.4ktt.com
◎片  長 89分鐘
◎導  演 阿德里安·格魯伯格 Adrian Grunberg
◎編  劇 馬修·西魯尼克 Matthew Cirulnick / 大衛·莫瑞爾 David Morrell / 西爾維斯特·史泰龍 Sylvester Stallone
◎主  演 西爾維斯特·史泰龍 Sylvester Stallone
      帕斯·貝加 Paz Vega
      路易·曼迪勒 Louis Mandylor
      奧斯卡·賈恩那達 óscar Jaenada
      維特·蒙雷爾 Yvette Monreal
      華金·科西奧 Joaquín Cosio
      杰西卡·馬德森 Jessica Madsen
      艾德里安娜·巴拉扎 Adriana Barraza
      塞爾吉奧·佩里斯-門切塔 Sergio Peris-Mencheta
      阿塔納斯·斯雷布雷夫 Atanas Srebrev
      尼克·威特曼 Nick Wittman


◎簡  介
  西爾維斯特·史泰龍回歸[第一滴血5],并有望執導。除主演外,據悉史泰龍將操刀劇本,故事圍繞蘭博為營救朋友之女與墨西哥毒梟展開殊死搏斗展開。制片艾威·勒納([敢死隊]系列)。該系列首部于1982年上映,2008年史泰龍曾自導自演[第一滴血4]。[第一滴血5]將在本屆戛納電影節預售,9月開拍。

Video
ID : 1
Format : AVC
Format/Info : Advanced Video Codec
Format profile : [email protected]
Format settings : CABAC / 4 Ref Frames
Format settings, CABAC : Yes
Format settings, Reference frames : 4 frames
Codec ID : V_MPEG4/ISO/AVC
Duration : 1 h 29 min
Bit rate mode : Variable
Bit rate : 34.3 Mb/s
Maximum bit rate : 35.5 Mb/s
Width : 1 920 pixels
Height : 1 080 pixels
Display aspect ratio : 16:9
Frame rate mode : Constant
Frame rate : 23.976 (24000/1001) FPS
Color space : YUV
Chroma subsampling : 4:2:0
Bit depth : 8 bits
Scan type : Progressive
Bits/(Pixel*Frame) : 0.690
Stream size : 21.4 GiB (80%)
Title : Rambo.Last.Blood.2019.1080p.BluRay.REMUX.AVC.DTS-HD.MA.TrueHD.7.1.Atmos-FGT
Language : English
Default : No
Forced : No

Audio #1
ID : 2
Format : MLP FBA 16-ch
Format/Info : Meridian Lossless Packing FBA with 16-channel presentation
Commercial name : Dolby TrueHD with Dolby Atmos
Codec ID : A_TRUEHD
Duration : 1 h 29 min
Bit rate mode : Variable
Bit rate : 3 100 kb/s
Maximum bit rate : 4 071 kb/s
Channel(s) : 8 channels
Channel layout : L R C LFE Ls Rs Lb Rb
Sampling rate : 48.0 kHz
Frame rate : 1 200.000 FPS (40 SPF)
Compression mode : Lossless
Stream size : 1.94 GiB (7%)
Title : Rambo.Last.Blood.2019.1080p.BluRay.REMUX.AVC.DTS-HD.MA.TrueHD.7.1.Atmos-FGT
Language : English
Default : Yes
Forced : No
Number of dynamic objects : 11
Bed channel count : 1 channel
Bed channel configuration : LFE

Audio #2
ID : 3
Format : DTS XLL
Format/Info : Digital Theater Systems
Commercial name : DTS-HD Master Audio
Codec ID : A_DTS
Duration : 1 h 29 min
Bit rate mode : Variable
Bit rate : 3 591 kb/s
Channel(s) : 8 channels
Channel layout : C L R LFE Lb Rb Lss Rss
Sampling rate : 48.0 kHz
Frame rate : 93.750 FPS (512 SPF)
Bit depth : 24 bits
Compression mode : Lossless
Stream size : 2.24 GiB (8%)
Title : Rambo.Last.Blood.2019.1080p.BluRay.REMUX.AVC.DTS-HD.MA.TrueHD.7.1.Atmos-FGT
Language : English
Default : No
Forced : No

Audio #3
ID : 4
Format : AC-3
Format/Info : Audio Coding 3
Commercial name : Dolby Digital
Codec ID : A_AC3
Duration : 1 h 29 min
Bit rate mode : Constant
Bit rate : 640 kb/s
Channel(s) : 6 channels
Channel layout : L R C LFE Ls Rs
Sampling rate : 48.0 kHz
Frame rate : 31.250 FPS (1536 SPF)
Bit depth : 16 bits
Compression mode : Lossy
Stream size : 410 MiB (1%)
Title : Rambo.Last.Blood.2019.1080p.BluRay.REMUX.AVC.DTS-HD.MA.TrueHD.7.1.Atmos-FGT
Language : English
Service kind : Complete Main
Default : No
Forced : No

Audio #4
ID : 5
Format : AC-3
Format/Info : Audio Coding 3
Commercial name : Dolby Digital
Codec ID : A_AC3
Duration : 1 h 29 min
Bit rate mode : Constant
Bit rate : 320 kb/s
Channel(s) : 2 channels
Channel layout : L R
Sampling rate : 48.0 kHz
Frame rate : 31.250 FPS (1536 SPF)
Bit depth : 16 bits
Compression mode : Lossy
Stream size : 205 MiB (1%)
Title : Rambo.Last.Blood.2019.1080p.BluRay.REMUX.AVC.DTS-HD.MA.TrueHD.7.1.Atmos-FGT
Language : English
Service kind : Complete Main
Default : No
Forced : No

Audio #5
ID : 6
Format : AC-3
Format/Info : Audio Coding 3
Commercial name : Dolby Digital
Codec ID : A_AC3
Duration : 1 h 29 min
Bit rate mode : Constant
Bit rate : 448 kb/s
Channel(s) : 6 channels
Channel layout : L R C LFE Ls Rs
Sampling rate : 48.0 kHz
Frame rate : 31.250 FPS (1536 SPF)
Bit depth : 16 bits
Compression mode : Lossy
Stream size : 287 MiB (1%)
Title : Rambo.Last.Blood.2019.1080p.BluRay.REMUX.AVC.DTS-HD.MA.TrueHD.7.1.Atmos-FGT
Language : Spanish
Service kind : Complete Main
Default : No
Forced : No

Audio #6
ID : 7
Format : AC-3
Format/Info : Audio Coding 3
Commercial name : Dolby Digital
Codec ID : A_AC3
Duration : 1 h 29 min
Bit rate mode : Constant
Bit rate : 448 kb/s
Channel(s) : 6 channels
Channel layout : L R C LFE Ls Rs
Sampling rate : 48.0 kHz
Frame rate : 31.250 FPS (1536 SPF)
Bit depth : 16 bits
Compression mode : Lossy
Stream size : 287 MiB (1%)
Title : Rambo.Last.Blood.2019.1080p.BluRay.REMUX.AVC.DTS-HD.MA.TrueHD.7.1.Atmos-FGT
Language : English
Service kind : Complete Main
Default : No
Forced : No

Text #1
ID : 8
Format : UTF-8
Codec ID : S_TEXT/UTF8
Codec ID/Info : UTF-8 Plain Text
Duration : 1 h 17 min
Bit rate : 26 b/s
Count of elements : 563
Stream size : 15.3 KiB (0%)
Title : English-SRT
Language : English
Default : Yes
Forced : No

Text #2
ID : 9
Format : UTF-8
Codec ID : S_TEXT/UTF8
Codec ID/Info : UTF-8 Plain Text
Duration : 1 h 18 min
Bit rate : 37 b/s
Count of elements : 834
Stream size : 21.2 KiB (0%)
Title : English-SDH-SRT
Language : English
Default : No
Forced : No

Text #3
ID : 10
Format : PGS
Muxing mode : zlib
Codec ID : S_HDMV/PGS
Codec ID/Info : Picture based subtitle format used on BDs/HD-DVDs
Duration : 1 h 18 min
Bit rate : 27.0 kb/s
Count of elements : 1683
Stream size : 15.1 MiB (0%)
Title : English-PGS
Language : English
Default : No
Forced : No

Text #4
ID : 11
Format : PGS
Muxing mode : zlib
Codec ID : S_HDMV/PGS
Codec ID/Info : Picture based subtitle format used on BDs/HD-DVDs
Duration : 1 h 20 min
Bit rate : 15.9 kb/s
Count of elements : 1104
Stream size : 9.14 MiB (0%)
Title : Spanish-PGS
Language : Spanish
Default : No
Forced : No

Text #5
ID : 12
Format : PGS
Muxing mode : zlib
Codec ID : S_HDMV/PGS
Codec ID/Info : Picture based subtitle format used on BDs/HD-DVDs
Duration : 1 h 9 min
Bit rate : 118 b/s
Count of elements : 6
Stream size : 60.2 KiB (0%)
Title : Spanish-FORCED-PGS
Language : Spanish
Default : No
Forced : No

Menu
00:00:00.000 : en:Chapter 01
00:04:50.081 : en:Chapter 02
00:10:59.158 : en:Chapter 03
00:14:35.791 : en:Chapter 04
00:22:39.024 : en:Chapter 05
00:25:11.718 : en:Chapter 06
00:31:24.382 : en:Chapter 07
00:36:12.253 : en:Chapter 08
00:41:08.299 : en:Chapter 09
00:46:37.878 : en:Chapter 10
00:49:29.967 : en:Chapter 11
00:55:04.926 : en:Chapter 12
01:00:08.229 : en:Chapter 13
01:05:57.495 : en:Chapter 14
01:12:06.280 : en:Chapter 15
01:17:47.287 : en:Chapter 16




游客,如果您要查看本帖隱藏內容請回復,如果您想無廣告、免回復、下載附件免影視幣請開通VIP:VIP傳送門


古哥影視論壇www.zqxbed.live 高清電影,藍光電影,最新電影,電影天堂,影視帝國,人人影視
推薦
發表于 2019-12-14 21:51:35 | 只看該作者
感謝樓主的無私分享!史泰龍的電影看著過癮
古哥影視論壇www.zqxbed.live 高清電影,藍光電影,最新電影,電影天堂,影視帝國,人人影視
回復 支持 1 反對 0

使用道具 舉報

2#
發表于 2019-12-12 22:54:34 | 只看該作者
我看不錯噢 謝謝樓主!古哥影視越來越好,高清電影還得上這來下載





......
古哥影視論壇www.zqxbed.live 高清電影,藍光電影,最新電影,電影天堂,影視帝國,人人影視
回復 支持 反對

使用道具 舉報

3#
發表于 2019-12-13 00:17:20 | 只看該作者
感謝樓主的分享啊!
古哥影視論壇www.zqxbed.live 高清電影,藍光電影,最新電影,電影天堂,影視帝國,人人影視
回復 支持 反對

使用道具 舉報

4#
發表于 2019-12-13 00:28:20 | 只看該作者
謝謝樓主的分享
古哥影視論壇www.zqxbed.live 高清電影,藍光電影,最新電影,電影天堂,影視帝國,人人影視
回復 支持 反對

使用道具 舉報

5#
發表于 2019-12-13 09:40:47 | 只看該作者
多謝分享,下載看看
古哥影視論壇www.zqxbed.live 高清電影,藍光電影,最新電影,電影天堂,影視帝國,人人影視
回復 支持 反對

使用道具 舉報

6#
發表于 2019-12-13 10:43:47 | 只看該作者
好資源,謝謝分享
古哥影視論壇www.zqxbed.live 高清電影,藍光電影,最新電影,電影天堂,影視帝國,人人影視
回復 支持 反對

使用道具 舉報

7#
發表于 2019-12-13 13:01:57 | 只看該作者

感謝樓主的無私分享!要想古哥影視好,就靠你我他!
古哥影視論壇www.zqxbed.live 高清電影,藍光電影,最新電影,電影天堂,影視帝國,人人影視
回復 支持 反對

使用道具 舉報

8#
發表于 2019-12-13 13:13:39 | 只看該作者
下載觀賞,感謝分享
古哥影視論壇www.zqxbed.live 高清電影,藍光電影,最新電影,電影天堂,影視帝國,人人影視
回復 支持 反對

使用道具 舉報

9#
發表于 2019-12-13 13:27:16 | 只看該作者
收藏了,感謝分享,史泰龍的電影看著過癮
古哥影視論壇www.zqxbed.live 高清電影,藍光電影,最新電影,電影天堂,影視帝國,人人影視
回復 支持 反對

使用道具 舉報

10#
發表于 2019-12-13 14:05:03 | 只看該作者
試下看能不能下載
古哥影視論壇www.zqxbed.live 高清電影,藍光電影,最新電影,電影天堂,影視帝國,人人影視
回復 支持 反對

使用道具 舉報

11#
發表于 2019-12-13 14:28:20 | 只看該作者
謝謝樓主分享
古哥影視論壇www.zqxbed.live 高清電影,藍光電影,最新電影,電影天堂,影視帝國,人人影視
回復 支持 反對

使用道具 舉報

12#
發表于 2019-12-13 14:54:22 | 只看該作者
謝謝樓主分享,樓主辛苦了。
古哥影視論壇www.zqxbed.live 高清電影,藍光電影,最新電影,電影天堂,影視帝國,人人影視
回復 支持 反對

使用道具 舉報

13#
發表于 2019-12-13 15:07:05 | 只看該作者
感謝樓主分享
古哥影視論壇www.zqxbed.live 高清電影,藍光電影,最新電影,電影天堂,影視帝國,人人影視
回復 支持 反對

使用道具 舉報

14#
發表于 2019-12-13 15:43:53 | 只看該作者
感謝樓主的分享啊!
古哥影視論壇www.zqxbed.live 高清電影,藍光電影,最新電影,電影天堂,影視帝國,人人影視
回復 支持 反對

使用道具 舉報

15#
發表于 2019-12-13 17:50:19 | 只看該作者
感謝樓主的分享啊!
古哥影視論壇www.zqxbed.live 高清電影,藍光電影,最新電影,電影天堂,影視帝國,人人影視
回復 支持 反對

使用道具 舉報

16#
發表于 2019-12-13 18:17:30 | 只看該作者
感謝樓主分享!永遠支持古哥影視
古哥影視論壇www.zqxbed.live 高清電影,藍光電影,最新電影,電影天堂,影視帝國,人人影視
回復 支持 反對

使用道具 舉報

17#
發表于 2019-12-13 20:05:33 | 只看該作者
謝謝分享,贊一個
古哥影視論壇www.zqxbed.live 高清電影,藍光電影,最新電影,電影天堂,影視帝國,人人影視
回復 支持 反對

使用道具 舉報

19#
發表于 2019-12-13 20:45:19 | 只看該作者
感謝樓主分享資源
古哥影視論壇www.zqxbed.live 高清電影,藍光電影,最新電影,電影天堂,影視帝國,人人影視
回復 支持 反對

使用道具 舉報

20#
發表于 2019-12-13 21:00:02 | 只看該作者
感謝樓主分享
古哥影視論壇www.zqxbed.live 高清電影,藍光電影,最新電影,電影天堂,影視帝國,人人影視
回復 支持 反對

使用道具 舉報

懶得打字嘛,點擊右側快捷回復->
您需要登錄后才可以回帖 登錄 | 注冊(分享大片)

本版積分規則

影視帝國免責聲明
本站提供網上學習交流和自由討論使用,所有資源均來自互聯網公開渠道,發布和個人言論并不代表本站立場,本站不負任何責任.
如發現有侵權行為,請與我們聯系.我們將立刻從網站上刪除,并向所有持版權者致最深歉意.
影視帝國論壇已經安全運行

QQ|小黑屋|手機版|Archiver|古哥論壇

GMT+8, 2020-1-18 08:56 , Processed in 0.202081 second(s), 20 queries , Gzip On.

Powered by Discuz! X3.4

© 2001-2017 Comsenz Inc.

快速回復 返回頂部 返回列表
pk10一分赛车技巧图片